#TITLE:Kiss Kara Hajimaru Miracle;
#SUBTITLE:- Steel Angel Kurumi Opening;
#ARTIST:Steel Angels;
#TITLETRANSLIT:;
#SUBTITLETRANSLIT:;
#ARTISTTRANSLIT:;
#CREDIT:Xion Steel;
#BANNER:Steel Angel Kurumi.png;
#BACKGROUND:Steel Angel Kurumi bg.png;
#LYRICSPATH:Steel Angel Kurumi OP - Kiss Kara Hajimaru Miracle.lrc;
#CDTITLE:SS credit logo.png;
#MUSIC:Steel Angel Kurumi OP - Kiss Kara Hajimaru Miracle.mp3;
#OFFSET:-0.080;
#SAMPLESTART:18.520;
#SAMPLELENGTH:18.100;
#SELECTABLE:YES;
#BPMS:0.000=155.980;
#STOPS:;
#BGCHANGES:0.000=Steel Angel Kurumi.avi=1.000=0=0=0,
99999=-nosongbg-=1.000=0=0=0 // don't automatically add -songbackground-
;
// cache tags:
#FIRSTBEAT:0.000;
#LASTBEAT:221.000;
#SONGFILENAME:songs/Otaku's Dream 3rd Anime Mix/[Xion Steel] Kiss Kara Hajimaru Miracle - Steel Angel Kurumi OP/Steel Angel Kurumi OP - Kiss Kara Hajimaru Miracle.sm;
#HASMUSIC:1;
#HASBANNER:1;
#MUSICLENGTH:88.346;
// end cache tags

//---------------dance-single - Blank----------------
#NOTES:
     dance-single:
     Blank:
     Hard:
     9:
     0.771,0.719,0.894,0.521,0.062,352.000,79.000,46.000,0.000,6.000:








0011
1010
1100
0101
,
0110
0011
1001
0110
,
0010
0100
0010
0001
0000
0100
0010
0001
,
0000
0000
1000
0000
0010
0000
0000
0000
0100
0000
0000
0010
0001
0010
0000
0000
,
1000
0100
0001
0100
0010
1000
0010
1000
,
0001
0010
0100
0010
0000
2000
3020
0230
,
0310
0010
0001
1000
0010
0100
0001
1000
,
2000
0000
0010
0000
0100
0000
0001
0000
3000
0000
0022
0000
2233
0000
0000
3300
,
1100
0010
0100
0001
0110
0001
0100
0010
,
1001
1000
0001
0100
1010
0100
0001
0100
,
0011
0000
0110
0000
1001
0110
0000
1001
,
0000
0000
1000
0000
0100
0000
0001
0000
1000
0001
1000
0000
0010
0000
0100
0000
,
1002
0000
0100
0000
1000
0000
0010
0003
0200
0000
0010
0000
0001
0000
1000
0300
,
0020
0000
1000
0000
0100
0000
0001
0030
2000
0000
0000
3000
0110
0000
0000
0000
,
0011
0000
1000
0000
0100
0000
0002
0000
0000
0000
0000
0000
0000
0000
0000
0003
,
1100
0000
0010
0000
0100
0000
2000
0000
0000
0000
0000
0000
0000
0000
0000
3000
,
0102
0000
0100
0000
1000
0000
1000
0003
0200
0000
0010
0000
0001
0000
1000
0300
,
0002
0000
0010
0000
0010
0000
0100
0003
2000
0000
0010
0000
0001
0000
0100
0000
,
0000
3000
0110
0000
0001
0000
1000
0000
0100
0010
0000
0000
0100
0010
0000
0000
,
1000
0010
0100
0010
0000
2000
3200
0320
,
0032
0000
0100
0000
0010
0000
0100
0003
2000
0000
0100
0000
0010
0000
0001
3000
,
0020
0000
0000
0000
0001
0000
0100
0000
1000
0000
0000
0030
0110
0000
0000
0000
,
0022
0000
0000
0000
0230
0000
0320
0000
0000
0000
0000
0033
0000
0000
0000
0000
,
2002
0000
0000
0000
0203
0000
0302
0000
0000
0000
0000
3003
0000
0000
0000
0000
,
2100
0000
0000
0000
0010
0000
0001
3000
0020
0000
0100
0000
0001
0000
1000
0030
,
0200
0000
0001
0000
0010
0000
1000
0300
0002
0000
1000
0000
0010
0000
1000
0003
,
0000
1000
0010
0000
0100
0000
0001
0010
,
0000
0000
1000
0000
0100
0000
0010
0000
0001
0000
1000
0000
0100
0010
0100
0000
,
1001
0000
1100
0000
0110
0000
1000
0010
,
0000
1100
0000
0100
0010
1000
0100
0000
,
0011
0100
0010
1000
0110
0010
0100
0000
,
0001
1000
0100
0011
0000
0000
0000
0000
,
1100
0110
0000
0001
1000
0100
0010
0000
,
0101
0010
1000
0001
0010
0100
1000
0000
,
0100
0010
0000
0100
0010
1000
0001
0100
,
0010
0000
0100
0000
0001
0000
1000
0000
0000
0000
1000
0100
0010
0001
0000
0000
,
1100
0110
0101
1010
,
0110
0000
0110
0000
0000
0000
2002
0000
0000
0000
0000
0000
0000
0000
0000
3003
,
0010
0001
1000
0100
0010
1000
1000
0010
,
0100
0001
0100
1000
0000
0200
0302
2003
,
3010
0100
0001
1000
0010
0100
0001
0100
,
0020
0100
1000
0001
0030
2002
3223
0330
,
1001
0001
0010
0100
0110
1000
0100
0010
,
0101
1000
0001
0100
1010
0001
0100
0010
,
1100
0000
0011
0000
0110
1100
0000
1001
,
0000
0000
1000
0000
0010
0000
0100
0000
0010
1000
0100
0000
0010
0000
0001
0000
,
0110
0010
0100
1000
0011
0100
0001
0010
,
1100
0001
0010
0100
0110
1000
0001
0100
,
1010
0000
0110
0000
1001
0011
0000
0110
,
0000
0000
0010
0000
0100
0000
0001
0000
0001
0010
1000
0000
0001
0000
1000
0000
,
1001
0000
0110
0000
0101
0101
0000
1100
,
0000
0000
0010
0000
0100
0000
1000
0000
0001
0100
0010
0000
0100
0000
1000
0000
,
0110
0010
0100
0001
0000
0110
0000
0011
,
0000
1100
0000
0101
0110
0000
1001
0000
,
0010
0100
0001
1000
0010
0000
0100
0010
,
0000
1001
0000
0000
;

//---------------dance-single - Blank----------------
#NOTES:
     dance-single:
     Blank:
     Medium:
     7:
     0.566,0.532,0.125,0.147,0.000,326.000,11.000,13.000,0.000,0.000:






0010
1000
0100
0001
,
0010
0100
0001
1000
,
0010
0001
1000
0010
0000
0100
0010
0001
,
0000
0110
0100
0001
,
1000
0010
0001
1000
0010
0001
0100
0010
,
0100
0010
1000
0010
0000
0000
0000
0000
,
0010
1000
0001
0100
0010
1000
0001
1000
,
0100
0010
0100
0001
0000
0000
0000
0000
,
0100
0010
1000
0100
1000
0001
0100
0010
,
0001
1000
0001
0010
1000
0001
0010
0100
,
0001
0000
1000
0000
0001
0110
0000
1001
,
0000
1000
0100
0001
1000
0000
0010
0100
,
0001
0010
1000
0001
0100
0010
1000
0001
,
0010
0000
1000
0000
0010
0000
0001
0000
0200
0000
0000
0300
0010
0000
0000
0000
,
0100
1000
0010
2000
0000
0000
0000
3000
,
0001
0010
0001
0200
0000
0000
0000
0300
,
0010
0100
0001
1000
0100
0010
0001
1000
,
0100
0010
0001
0100
0100
0010
0001
1000
,
0000
0010
0001
1000
0101
0000
0101
0000
,
0100
1000
0001
0010
0000
0010
0100
1000
,
0001
0100
0010
0010
1000
0100
1000
0001
,
0010
0000
0001
0010
1000
0000
0110
0000
,
2000
0000
0000
0000
3200
0000
0320
0000
0000
0000
0000
0030
0000
0000
0000
0000
,
2000
0000
0000
0000
3200
0000
0302
0000
0000
0000
0000
0003
0000
0000
0000
0000
,
1001
0000
0010
0001
0010
0100
0001
1000
,
0010
0001
0010
0100
0001
1000
0010
0100
,
0000
0100
0010
0000
1000
0000
0100
0010
,
0000
1000
0100
0010
0001
1000
0010
0000
,
0001
0000
0100
0000
0100
0000
1000
0001
,
0000
0010
0000
1000
0010
0001
0100
0000
,
0010
0001
0100
0001
0010
0010
0100
0000
,
0001
0100
0100
1000
0000
0000
0000
0000
,
1000
0010
0000
0100
0001
0100
1000
0000
,
0001
0100
1000
0001
1000
0100
0010
0000
,
0100
0010
0000
0100
0010
0100
1000
0010
,
0001
0000
1000
0000
0001
0000
0010
0000
0000
0000
2000
0000
0020
0000
0000
3030
,
0100
0010
0001
0010
,
0010
0000
0100
0000
0000
0000
2002
0000
0000
0000
0000
0000
0000
0000
0000
3003
,
0010
0001
0100
1000
0010
1000
0001
0010
,
1000
0001
0100
0010
0000
0000
0000
0000
,
1000
0010
0001
0100
0010
1000
0001
0001
,
0010
0001
1000
1000
0000
0000
0000
0000
,
1000
0100
0010
0001
1000
0001
0100
0010
,
0001
0100
0001
1000
0010
0001
0010
0100
,
1000
0000
0001
0000
0100
1000
0000
1001
,
0000
1000
0010
0100
0001
0000
0010
0001
,
0010
0010
0100
1000
0010
0100
0001
0010
,
0100
0001
0010
0100
0010
1000
0001
0100
,
0010
0000
0001
0000
1000
0001
0000
0100
,
0000
0010
0100
0001
0001
1000
0001
1000
,
0010
0000
1000
0000
0001
0100
0000
0100
,
0000
0010
0100
1000
0001
0000
0100
1000
,
0110
0010
0100
0001
0000
1000
0000
0001
,
0000
0100
0000
0100
0010
0000
1000
0000
,
0010
0100
0001
1000
0010
0000
0100
1000
,
0000
0011
0000
0000
;

//---------------dance-single - Blank----------------
#NOTES:
     dance-single:
     Blank:
     Challenge:
     10:
     0.954,1.000,1.000,0.419,0.306,419.000,134.000,37.000,0.000,0.000:

0100
0010
0100
0000
0010
0001
0100
0000
0001
0010
0100
0000
0010
1000
0001
0000
,
1000
0010
0001
0000
0010
1000
0001
0000
0100
0001
1000
0000
0100
0001
0010
0000
,
0010
0100
0010
0001
0000
0100
0010
0001
,
0000
0000
1000
0100
0010
0000
0010
0000
0100
1000
0100
0010
0001
0010
0100
0000
,
1000
0100
0001
0100
0010
1000
0010
1000
,
0011
0000
0011
0000
1100
0000
0110
0000
0000
0000
0001
0010
0100
0010
0001
0000
,
0010
0010
0001
1000
0010
0100
0001
1000
,
0101
0000
1010
0000
0110
0000
0011
0000
0000
0000
0000
0010
0100
0001
0000
0000
,
1010
0100
0010
0000
0101
0010
1000
0000
0110
0001
0010
0000
1001
0100
0010
0000
,
0101
0010
0001
0000
0011
1000
0010
0000
1100
0001
0100
0000
0011
0000
0011
0000
,
0101
0000
0110
0000
1001
0110
0000
1001
,
0000
0000
1000
0000
0100
0000
0001
0000
1000
0001
1000
0000
0010
0001
0100
0000
,
1200
0000
0010
0000
1000
0000
0010
0300
0102
0000
0100
0000
1000
0000
0100
0003
,
1200
0000
0001
0000
0010
0000
1000
0300
2020
0000
0000
3030
0220
0000
0000
0330
,
0010
0100
1000
0000
0100
0000
0002
0000
0010
0000
0100
0000
0010
0000
0100
0003
,
0100
0001
0010
0000
0100
0000
2000
0000
0010
0000
0001
0000
0100
0000
0010
3000
,
0012
0000
0100
0000
0100
0000
0100
0003
2001
0000
0010
0000
0001
0000
0010
3000
,
1002
0000
1000
0000
0010
0000
0100
0003
0210
0000
0010
0000
0001
0000
1000
0000
,
0300
0000
0110
0000
0001
0000
1000
0000
1000
0010
0000
0000
0001
0010
0000
0000
,
1000
0000
0000
0000
0010
0000
0000
0000
0100
0000
0000
0000
0010
0000
0000
0000
0000
0000
0000
0000
2020
0000
0000
3030
0202
0000
0000
0303
2020
0000
0000
3030
,
0102
0000
1000
0000
0010
0000
0100
0003
0201
0000
1000
0000
0010
0000
0001
0300
,
1020
0000
0000
0000
0001
0000
0001
0000
1000
0000
0000
0030
0110
0000
0000
0000
,
0022
0000
0000
0000
0000
0000
0000
0030
0200
0000
0000
0300
2000
0000
0000
0000
0000
0000
0000
0000
0000
0000
3003
0000
0100
0000
0000
0000
0010
0000
0000
0000
,
2002
0000
0000
0000
0000
0000
0000
3000
0020
0000
0000
0030
0200
0000
0000
0000
0000
0000
0000
0000
0000
0000
0303
0000
0010
0000
0000
0000
0100
0000
0000
0000
,
0102
0000
0000
0000
0010
0000
1000
0003
2100
0000
0010
0000
0001
0000
0010
3000
,
1200
0000
0001
0000
0010
0000
1000
0300
0012
0000
0100
0000
0010
0000
0010
0003
,
0000
1001
0011
0000
0110
0000
1001
0110
,
0000
0000
1100
0000
0101
0000
0010
0000
0010
1000
0100
0000
0001
0010
0100
0000
,
1001
0000
1100
0110
0011
0000
1000
0010
,
0000
1100
0000
0110
0101
1000
0100
0000
,
0011
0100
0010
1001
0110
0010
0100
0000
,
0001
1000
0100
0011
0110
0000
0000
0000
,
1100
0110
0000
0011
1010
0100
0010
0000
,
0101
0010
1000
0011
1010
0100
1000
0000
,
0100
0010
0000
0100
0010
1000
0001
0100
,
0010
0000
0100
0000
1001
0000
1100
0000
0000
0000
1000
0010
0100
0001
0000
0000
,
1100
0110
1001
0011
,
0101
0000
0011
0000
0000
0000
0202
0000
0000
0000
0000
0000
0000
0000
0000
0303
,
1000
0001
0100
0001
0010
0001
0100
0001
,
0101
0000
0101
0000
0110
0000
1001
0000
0000
0000
0100
0000
0010
0001
1000
0000
,
0010
0001
0100
0000
0001
0000
1000
0000
0010
0000
0100
0000
0001
0000
0100
0000
,
0020
0100
1000
0001
0030
1100
0110
0000
,
0101
1000
0001
0000
0011
0100
1000
0000
0110
0001
1000
0000
1001
0100
0001
0000
,
0011
1000
0100
0000
1001
0010
0100
0000
1100
0010
0001
0000
0101
0000
0110
0000
,
0110
0000
0101
0000
1010
0101
0000
1001
,
0000
0000
0010
0000
0010
0000
0100
0000
0010
1000
0100
0000
0010
0000
1000
0000
,
0110
1000
0010
0000
0101
1000
0001
0000
0101
0010
1000
0000
1001
0010
0100
0000
,
1010
0100
0001
0000
0110
1000
0010
0000
0110
1000
0001
0000
1001
0000
0110
0000
,
1010
0000
0110
0000
1001
0011
0000
0110
,
0000
0000
0001
0000
0010
0000
1000
0000
0010
0100
1000
0000
0001
0000
0100
0000
,
1001
0000
1010
0000
0101
1001
0000
1100
,
0000
0000
0010
0000
1000
0001
1000
0001
1000
0001
1000
0000
1100
0000
0011
0000
,
0110
1010
0101
0011
0000
0110
0000
0011
,
0000
1100
0000
0101
0110
0000
1001
0000
,
1000
0001
0001
1000
0010
0000
0101
0011
,
0000
0110
0000
0000
;

//---------------dance-single - Blank----------------
#NOTES:
     dance-single:
     Blank:
     Easy:
     4:
     0.340,0.406,0.068,0.170,0.000,189.000,6.000,15.000,0.000,0.000:

















0001
0000
1000
0000
,
0010
0000
0001
0000
,
0010
0001
0100
0000
0000
0100
1000
0001
,
0000
0010
1000
0001
,
1000
0001
0010
1000
,
0001
0100
0000
0000
,
0010
0001
1000
0001
,
0010
1000
0000
0000
,
0100
1000
0100
0001
,
1000
0010
0100
1000
,
0202
0000
0000
0303
2020
0000
0000
3030
,
0000
0000
0100
0001
1000
0000
0100
0000
,
0010
0100
0001
1000
,
0010
1000
0100
0000
,
0200
0000
0000
0300
0020
0000
0000
0030
0000
0000
0000
0000
0000
0000
0000
0000
,
0002
0000
0000
0003
0200
0000
0000
0300
0000
0000
0000
0000
0000
0000
0000
0000
,
1000
0010
0010
1000
,
0010
0100
1000
0001
,
0000
0000
0000
0000
0001
0000
0000
0000
0200
0000
0000
0300
0002
0000
0000
0003
,
0100
0000
0001
0000
0000
0000
0100
1000
,
0001
0010
1000
0100
,
0010
0001
1000
0110
,
2000
0000
0000
3000
0200
0000
0000
0300
0000
0000
0000
0000
0000
0000
0000
0000
,
2000
0000
0000
3000
0020
0000
0000
0030
0000
0000
0000
0000
0000
0000
0000
0000
,
1001
0010
0010
0100
,
1000
0001
0001
1000
,
0000
0010
1000
0100
,
0000
0000
0100
0000
0001
1000
0010
0000
,
0100
0000
0000
0100
0001
0000
0000
0000
,
0100
0000
0000
0001
0010
0000
0000
0000
,
0001
0000
0000
1000
0010
0000
0000
0000
,
0001
0000
0000
1000
0010
0000
0000
0000
,
1000
0000
0000
0100
0100
0000
0000
0000
,
0001
0000
0000
1000
0010
0000
0000
0000
,
0101
0000
0010
1000
,
0001
1000
0001
0000
0000
1000
0001
0000
,
0100
0010
0001
0010
,
0010
0000
1000
0000
0000
0000
0200
0000
0000
0000
0000
0000
0000
0000
0000
0300
,
1000
0010
0001
1000
,
1000
0010
0000
0000
,
1000
0100
0001
1000
,
0010
0100
0000
0000
,
1000
0100
0010
0001
,
0010
0001
0100
1000
,
1000
0000
0001
0000
0100
0000
0000
0001
,
0000
0000
0010
1000
0001
0000
0100
0000
,
0010
0001
1000
0010
,
0100
0010
0010
0100
,
0010
0000
0001
0000
1000
0000
0000
0100
,
0000
0000
0100
0010
0001
0000
0001
0000
,
0010
0000
1000
0000
0001
0000
0000
0100
,
0000
0100
0001
0100
,
0010
0000
0010
0000
1000
0000
0000
0001
,
0000
0100
0000
0000
0010
0000
1000
0000
,
0001
0000
0100
0000
0010
0000
0100
1000
,
0000
1001
0000
0000
;

//---------------dance-single - Blank----------------
#NOTES:
     dance-single:
     Blank:
     Beginner:
     1:
     0.175,0.281,0.057,0.125,0.000,92.000,5.000,11.000,0.000,0.000:















1000
0000
0000
0000
,
0001
0000
0000
0000
,
0010
0100
0001
1000
,
0000
0000
0000
0000
,
1000
0000
0000
0010
,
0000
0100
0000
0000
,
1000
0000
0010
0000
,
1000
0000
0000
0000
,
0010
0000
0001
0000
,
1000
0000
0010
0000
,
2002
0000
0000
0000
,
3003
0000
0000
0000
,
0100
0000
0001
0000
,
0100
0000
0001
0000
,
0100
0000
0010
0000
,
1000
0000
0001
0000
,
0100
0000
0001
0000
,
0100
0000
0010
0000
,
1000
0000
0100
0000
,
0100
0000
0100
0000
,
0010
0000
1000
0000
,
0001
0000
0100
0000
,
0010
0000
1000
0000
,
0001
0000
0100
0000
,
0010
0000
1000
0000
,
0001
0000
0010
0000
,
0020
0000
0000
0000
,
0000
0000
0030
0000
,
0100
0000
0001
0000
,
1000
0000
0010
0000
,
1000
0000
0001
0000
,
0100
0000
0010
0000
,
1000
0000
0001
0000
,
0100
0000
0010
0000
,
2020
0000
0000
0000
0000
0000
0000
3030
,
0202
0000
0000
0000
0000
0000
0000
0303
,
1000
0000
0001
0000
,
0100
0000
0001
0000
,
1000
0000
0100
0000
,
0010
0000
0100
0000
,
1000
0000
0001
0000
,
0100
0000
0010
0000
,
1000
0000
0100
0000
,
0010
0000
0001
0000
,
2002
0000
0000
0000
,
0000
0000
0000
0000
0000
0000
0000
3003
,
0100
0000
0001
0000
,
0100
0000
0001
0000
,
1000
0000
0010
0000
,
0100
0000
0000
0000
,
1000
0000
0010
0000
,
0100
0000
0000
0000
,
1000
0000
0001
0000
,
0100
0000
0001
0000
,
2002
0000
0000
0000
,
0000
3003
0000
0000
;
